Bumblebee 2018 Movies HD Cam x264 Clean Audio New Source ESubs with Sample ☻rDX☻

seeders: 0
leechers: 0
updated:

Download Fast Safe Anonymous
movies, software, shows...
  • Downloads: 2041
  • Language: English

Files

Bumblebee 2018 Movies HD Cam x264 Clean Audio New Source ESubs with Sample ☻rDX☻
  • Sample ~ Bumblebee 2018 Movies HD Cam x264 Clean Audio New Source ESubs ☻rDX☻.mkv (6.0 MB)
  • Bumblebee 2018 Movies HD Cam x264 Clean Audio New Source ESubs ☻rDX☻.mkv (699.3 MB)

Description

Bumblebee 2018 Movies HD Cam x264 Clean Audio New Source ESubs with Sample ☻rDX☻
===============================================================================================

SCREEN SHOTS:



or

http://iphonehosting.eu/2018/11/b/accessories/1.html

File size : 699 MiB
Duration : 1 h 49 min
Overall bit rate mode : Constant
Overall bit rate : 894 kb/s
Movie name : Bumblebee 2018 Movies HD Cam x264 Clean Audio New Source ESubs ☻rDX☻

Video
ID : 2
Format : AVC
Format/Info : Advanced Video Codec
Format profile : [email protected]
Format settings, CABAC : Yes
Format settings, ReFrames : 2 frames
Format settings, GOP : M=1, N=12
Codec ID : V_MPEG4/ISO/AVC
Duration : 1 h 49 min
Bit rate mode : Constant
Bit rate : 831 kb/s
Width : 700 pixels
Height : 378 pixels
Display aspect ratio : 1.85:1
Frame rate mode : Constant
Frame rate : 29.970 (30000/1001) FPS
Color space : YUV
Chroma subsampling : 4:2:0
Bit depth : 8 bits
Scan type : Progressive
Bits/(Pixel*Frame) : 0.105
Stream size : 635 MiB (91%)
Title : ☻rDX☻
Default : Yes
Forced : No

Audio
ID : 1
Format : AC-3
Format/Info : Audio Coding 3
Mode extension : CM (complete main)
Format settings, Endianness : Big
Codec ID : A_AC3
Duration : 1 h 49 min
Bit rate mode : Constant
Bit rate : 64.0 kb/s
Channel(s) : 2 channels
Channel positions : Front: L R
Sampling rate : 44.1 kHz
Frame rate : 28.711 FPS (1536 spf)
Bit depth : 16 bits
Compression mode : Lossy
Stream size : 50.1 MiB (7%)
Title : ☻rDX☻
Default : Yes
Forced : No

http://www.imdb.com/title/tt4701182



Download torrent
705.3 MB
seeders:0
leechers:0
Bumblebee 2018 Movies HD Cam x264 Clean Audio New Source ESubs with Sample ☻rDX☻


Trackers

tracker name
udp://tracker.coppersurfer.tk:6969/announce
udp://tracker.leechers-paradise.org:6969/announce
udp://tracker.pirateparty.gr:6969/announce
udp://eddie4.nl:6969/announce
udp://tracker.zer0day.to:1337/announce
udp://9.rarbg.me:2710/announce
udp://9.rarbg.to:2710/announce
udp://public.popcorn-tracker.org:6969/announce
udp://p4p.arenabg.ch:1337/announce
udp://tracker.vanitycore.co:6969/announce
udp://ipv4.tracker.harry.lu:80/announce
udp://tracker.opentrackr.org:1337/announce
udp://p4p.arenabg.com:1337/announce
udp://shadowshq.yi.org:6969/announce
µTorrent compatible trackers list

Download torrent
705.3 MB
seeders:0
leechers:0
Bumblebee 2018 Movies HD Cam x264 Clean Audio New Source ESubs with Sample ☻rDX☻


Torrent hash: 4D3513CEE3B28A6DB76553710559CC1517CAB43E